<?xml version="1.0" standalone="no"?>
<!DOCTYPE svg PUBLIC "-//W3C//DTD SVG 1.1//EN" "http://www.w3.org/Graphics/SVG/1.1/DTD/svg11.dtd" >
<svg xmlns="http://www.w3.org/2000/svg">
<metadata>
This is a custom SVG webfont generated by Font Squirrel.
Copyright   : Lintsec font c 1992 by David Rakowski All Rights Reserved
</metadata>
<defs>
<font id="webfontAwazjcAN" horiz-adv-x="645" >
<font-face units-per-em="2048" ascent="1655" descent="-393" />
<missing-glyph horiz-adv-x="786" />
<glyph unicode=" "  horiz-adv-x="786" />
<glyph unicode="&#x09;" horiz-adv-x="786" />
<glyph unicode="&#xa0;" horiz-adv-x="786" />
<glyph unicode="!" d="M66 1579h559l-209 -907h-170zM72 252q0 109 75.5 184.5t184 75.5t184.5 -76q74 -74 74 -184.5t-74 -183.5q-76 -76 -184.5 -76t-184 75.5t-75.5 184.5z" />
<glyph unicode="&#x22;" horiz-adv-x="1236" d="M63 692q51 86 78 137q80 154 80 226q-55 37 -100 102q-49 74 -49 135q0 109 75.5 184.5t184 75.5t184.5 -75q74 -74 74 -185q0 -59 -19 -125q-18 -61 -57 -98q-31 -29 -137 -117l-207 -170zM649 692q51 86 78 137q82 158 82 226q-59 41 -102 102q-49 74 -50 135 q0 109 76 184.5t184.5 75.5t184.5 -75.5t76 -184.5q0 -53 -21 -125q-18 -61 -57 -98q-31 -29 -137 -117l-207 -170z" />
<glyph unicode="'" d="M63 692q51 86 78 137q80 154 80 226q-55 37 -100 102q-49 74 -49 135q0 109 75.5 184.5t184 75.5t184.5 -75q74 -74 74 -185q0 -59 -19 -125q-18 -61 -57 -98q-31 -29 -137 -117l-207 -170z" />
<glyph unicode="(" horiz-adv-x="983" d="M88 780q0 322 213 557q211 233 508 234q27 0 45 -33q16 -31 16 -74q0 -35 -14 -55t-47 -20q-121 -31 -164 -185q-27 -98 -27 -307v-109v-124q0 -291 60 -404q55 -102 168 -127q18 0 28 -18q10 -20 11 -43q0 -27 -11 -52q-8 -20 -28 -20q-313 0 -533 219 q-225 225 -225 561z" />
<glyph unicode=")" horiz-adv-x="849" d="M8 61q0 25 10 50q10 23 27 22q147 35 197 193q33 100 32 338v124q0 162 -6 236q-12 138 -49 221q-47 106 -139 144q-20 0 -33 28q-14 37 -14 72t12 59.5t37 22.5q295 0 508 -234q213 -236 213 -557q0 -334 -221.5 -555t-534.5 -221q-39 0 -39 57z" />
<glyph unicode="," d="M63 -346q51 86 78 137q80 154 80 223q-55 37 -100 103q-49 74 -49 135q0 109 75.5 184.5t184 75.5t184.5 -76q74 -74 74 -184q0 -59 -19 -125q-18 -61 -57 -98q-18 -18 -137 -115l-207 -172z" />
<glyph unicode="-" horiz-adv-x="983" d="M86 774v227h811v-227h-811z" />
<glyph unicode="." d="M72 252q0 109 75.5 184.5t184 75.5t184.5 -76q74 -74 74 -184.5t-74 -183.5q-76 -76 -184.5 -76t-184 75.5t-75.5 184.5z" />
<glyph unicode="0" horiz-adv-x="1644" d="M72 774q0 324 182 561q180 236 436 236q23 0 37 -33q14 -31 14 -74q0 -35 -12 -57q-12 -20 -41 -21q-102 -33 -139 -188q-25 -100 -25 -311v-105v-123q0 -242 27 -342q43 -162 170 -196q12 0 22 -19q10 -20 10.5 -44.5t-10.5 -49.5q-8 -20 -22 -20q-270 0 -459 221 q-190 223 -190 565zM868 49q0 33 9 51q8 20 24 21q125 31 168 194q27 104 27 338v129q0 193 -4 238q-8 137 -43 223q-41 106 -117 143q-16 0 -29 33q-12 35 -12 70q0 33 10 59q10 25 31 23q256 0 436 -236q182 -238 182 -561q0 -336 -190 -561q-190 -223 -457 -223 q-18 0 -26 18q-9 16 -9 41z" />
<glyph unicode="1" horiz-adv-x="1136" d="M59 -4v115q0 53 121 90q123 37 123 102l-2 778l-215 2v179q123 23 225 100l158 139q82 72 149 72h72h90h25l2 -1249q0 -100 119 -129q117 -27 116 -84l2 -111z" />
<glyph unicode="2" horiz-adv-x="1562" d="M72 1182q0 152 133 268q131 117 311 117q27 2 43 -15q14 -14 14 -40.5t-16 -53t-35 -26.5q-41 -18 -55 -33q-16 -16 -16 -31q0 -23 69.5 -94.5t69.5 -138.5q0 -102 -76 -170q-77 -68 -184 -68q-117 0 -191 90q-67 82 -67 195zM158 2q0 10 1 32.5t3 31.5q20 143 102 278 h858q34 0 111 123q37 59 88 59l170 4l-133 -534zM344 508q53 109 217 192q244 127 264 144q129 98 129 252q0 131 -14 174q-27 88 -125 157q-27 8 -27 56q0 39 20.5 65.5t59.5 26.5q233 0 400 -117q193 -135 192 -362q0 -205 -139 -312q-86 -63 -317 -135 q-225 -70 -324 -141h-336z" />
<glyph unicode="3" horiz-adv-x="1517" d="M63 1251q0 127 119 228q121 102 269 102q47 0 90 -12q18 -2 30.5 -20.5t12.5 -47.5q0 -57 -39 -74q-43 0 -74 -18q-20 -12 -41 -39q49 -46 68 -80q25 -43 24 -98q0 -90 -63 -145q-68 -57 -156 -58q-94 0 -162 68q-66 66 -75 160q-3 7 -3 34zM72 340q0 102 86 186 q84 82 188 82q90 0 146 -65q57 -68 57 -152q0 -72 -21 -104q-29 -45 -84 -70q23 -18 70 -26.5t64 -16.5q33 -14 32 -78q0 -35 -12 -65.5t-35 -30.5q-195 0 -332 78q-159 92 -159 262zM664 809q0 29 20 49q23 23 64 31q104 0 157 92q39 70 39 172v51q0 100 -20 144 q-31 70 -121 69q-23 -4 -31 15q-10 20 -10 47q0 37 16.5 65.5t38.5 28.5q223 0 385 -96q186 -113 187 -318q-12 -120 -68 -196q-70 -90 -195 -115q151 -25 240 -141q84 -113 84 -261q0 -180 -151.5 -313t-358.5 -133h-43q-12 2 -25.5 4t-17.5 2q-27 0 -43 28.5t-16 63.5 q0 63 41 70q66 0 100 94q27 74 27 193q0 115 -37 174q-49 76 -181 92q-31 -3 -55 24q-26 31 -26 64z" />
<glyph unicode="4" horiz-adv-x="1699" d="M92 471l2 178l486 547v-332l-183 -176h13q23 0 34 2q55 0 93 -10q53 -16 53 -49l4 -162zM627 2l2 137q0 55 120.5 73.5t120.5 72.5v1005q0 71 105 185q29 31 106 102h275v-227v-324v-367h237v-204h-129h-108l-4 -195q0 -53 135 -59t135 -64v-139z" />
<glyph unicode="5" horiz-adv-x="1495" d="M68 365q0 113 81.5 196.5t184.5 83.5q94 0 164 -67q74 -70 73 -156q0 -66 -41 -113q-15 -18 -86 -73q16 -29 35 -48q20 -18 64 -18q16 -2 30 -33q14 -29 15 -65q0 -25 -10.5 -41.5t-34.5 -16.5q-23 -4 -68 -4q-172 0 -287 96q-120 103 -120 259zM270 827v738 q82 -20 201 -33q129 -12 272 -12q164 0 256 10q117 12 213 45q0 -139 -143 -258t-326 -119q-176 0 -297 47l-2 -411q0 -23 -28 -39q-27 -14 -64 -14.5t-59.5 11.5t-22.5 35zM659 940q0 43 7 74q59 23 118 30q68 10 136 11q201 0 350 -137q156 -143 155 -357 q0 -256 -194 -411q-182 -147 -449 -148q-23 0 -34 29q-14 33 -15 67q0 29 10.5 49.5t24.5 20.5q104 16 143 137q29 84 29 244q0 147 -43 225q-35 63 -102 72q-12 2 -45 -10q-31 -12 -45 -13q-23 0 -33 13q-13 34 -13 104z" />
<glyph unicode="6" horiz-adv-x="1556" d="M72 774q0 322 149 541q172 252 471 252q20 0 43 -35q20 -33 21 -66q0 -25 -12.5 -41t-41.5 -16q-84 0 -127 -235q-33 -186 -32 -406q0 -174 4 -276q2 -70 39 -168q35 -96 112 -150q18 -8 27 -33q8 -23 8 -53q0 -37 -12 -61.5t-35 -18.5q-260 0 -438 228 q-176 225 -176 538zM739 805q0 31 14.5 57.5t49.5 40.5q96 23 174 23q217 0 366 -131q147 -129 148 -328q0 -164 -147.5 -317.5t-323.5 -153.5q-37 0 -78 10q-27 0 -39 21q-12 23 -12 51q0 35 10 55q12 27 31 31q66 31 88 108q14 45 14 156v33v22q0 117 -71 179 q-55 46 -197 92q-27 6 -27 51zM903 1503q0 29 12.5 49.5t38.5 20.5q209 0 351 -68q180 -86 180 -260q0 -94 -66 -164q-65 -68 -159 -67q-86 0 -145.5 53t-59.5 139q0 57 10 94q8 29 51 66q-29 29 -45 37q-12 6 -43 6h-29q-23 0 -55 8q-16 0 -28.5 26.5t-12.5 59.5z" />
<glyph unicode="7" horiz-adv-x="1355" d="M59 1102q0 4 4 20l105 451h1116l-168 -316h-733q-51 0 -119 -86q-16 -20 -57 -86q-22 -22 -43 -30q-18 -8 -43 -8q-31 0 -45 14q-17 16 -17 41zM299 195q0 147 78 309q63 129 190 291q102 125 234 264l223 -2q-65 -117 -98 -307l-54 -326q-41 -197 -118 -326 q-33 -51 -82 -75.5t-113 -24.5q-35 0 -82 10q-74 16 -121 64q-57 53 -57 123z" />
<glyph unicode="8" horiz-adv-x="1574" d="M72 473q0 125 82 219q71 80 184 129q-117 43 -172 123q-61 86 -62 236q0 156 162 274.5t365 118.5q12 -2 24 -19q18 -25 19 -57q0 -28 -12 -49q-12 -23 -33 -25q-41 -29 -61.5 -92t-20.5 -147q0 -25 -2 -47.5t-2 -46.5q0 -55 14 -103q12 -39 53 -63.5t60 -55.5 q16 -27 16 -63q0 -74 -65 -115q-45 -31 -62 -106q-10 -51 -10 -138q0 -88 35 -163q37 -80 102 -129q27 -8 27 -60q0 -39 -15 -65q-16 -29 -39 -29q-233 0 -397 109q-190 128 -190 364zM844 94q0 51 26 60q70 53 103 129q35 80 35 163q0 102 -9 138q-14 74 -63 106 q-66 41 -66 115q0 35 17 61q18 31 57 56q40 25 55 67q14 41 15 101q0 25 -2 47t-2 47q0 83 -19 147q-18 63 -63 92q-20 2 -33 25q-12 22 -12 49q0 31 10 49q12 20 33 27q199 0 364 -119q162 -117 162 -274q0 -150 -57 -232q-59 -86 -176 -127q115 -49 182 -127 q84 -92 84 -221q0 -236 -189 -362q-163 -111 -399 -111q-20 0 -37 31q-16 32 -16 63z" />
<glyph unicode="9" horiz-adv-x="1587" d="M104 1112q0 162 147.5 315.5t321.5 153.5q45 0 78 -8q27 0 39 -23q14 -25 15 -49q0 -31 -12.5 -55.5t-30.5 -30.5q-63 -31 -87 -108q-14 -45 -14 -156v-33v-22q0 -117 70 -178q57 -49 198 -95q27 -6 27 -49q0 -29 -16.5 -57.5t-46.5 -40.5q-96 -23 -175 -23 q-217 0 -366 131q-148 129 -148 328zM111 332q0 100 63 166q65 68 160 67q88 0 147.5 -53t59.5 -139q0 -66 -9 -88q-10 -37 -53 -72q31 -31 43 -37q16 -8 45 -8h27q33 0 57 -6q16 0 29 -27q12 -29 12 -59.5t-12 -51t-41 -20.5q-207 0 -348 68q-180 86 -180 260zM838 113 q0 27 12 41t41 14q86 0 129 238q31 176 31 403v88q0 246 -37 348.5t-117 157.5q-16 8 -26.5 34.5t-10.5 53.5q0 33 14 61q12 25 35 19q260 0 439 -232q176 -225 176 -536q0 -317 -152 -541q-170 -250 -469 -250q-25 0 -45 33t-20 68z" />
<glyph unicode=":" d="M72 252q0 109 75.5 184.5t184 75.5t184.5 -76q74 -74 74 -184.5t-74 -183.5q-76 -76 -184.5 -76t-184 75.5t-75.5 184.5zM72 1217q0 109 75.5 184.5t184 75.5t184.5 -76q74 -74 74 -184.5t-74 -184.5q-76 -76 -184.5 -76t-184 76t-75.5 185z" />
<glyph unicode=";" d="M63 -346q51 86 78 137q80 154 80 223q-55 37 -100 103q-49 74 -49 135q0 109 75.5 184.5t184 75.5t184.5 -76q74 -74 74 -184q0 -59 -19 -125q-18 -61 -57 -98q-18 -18 -137 -115l-207 -172zM72 1217q0 109 75.5 184.5t184 75.5t184.5 -76q74 -74 74 -184.5t-74 -184.5 q-76 -76 -184.5 -76t-184 76t-75.5 185z" />
<glyph unicode="?" horiz-adv-x="1517" d="M63 1251q0 127 119 228q121 102 269 102q47 0 90 -12q18 -2 30.5 -20.5t12.5 -47.5q0 -57 -39 -74q-43 0 -74 -18q-20 -12 -41 -39q49 -46 68 -80q25 -43 24 -98q0 -90 -63 -145q-68 -57 -156 -58q-94 0 -162 68q-66 66 -75 160q-3 7 -3 34zM516 223q0 90 65.5 155.5 t155.5 65.5t155.5 -65.5t65.5 -155.5t-65 -155q-63 -63 -155.5 -63.5t-155.5 63.5q-66 65 -66 155zM594 674q0 86 31 135q39 61 127 79.5t143 102.5q49 74 49 162v51q0 100 -20 144q-31 70 -121 69q-23 -4 -31 15q-10 20 -10 47q0 37 16.5 65.5t38.5 28.5q223 0 385 -96 q186 -113 187 -318q-10 -88 -93 -162l-170 -149q-14 -14 -127 -80q-76 -45 -82 -98.5t-53 -77.5q-45 -25 -106 -25q-63 0 -115 29q-49 27 -49 78z" />
<glyph unicode="A" horiz-adv-x="2045" d="M86 100q0 59 84 99q100 47 121 98l346 825q2 -2 39 -22q66 -102 65 -187q0 -16 -6 -26l-213 -549q-9 -18 -12 -37q-2 -12 -2 -31q0 -57 92 -77q94 -20 94 -66l8 -131l-616 6v98zM750 1290l106 283l387 2l500 -1305q15 -40 61 -61q94 -45 105 -80l28 -129l-946 2l17 123 q6 41 94 55q90 16 90 49q0 6 -8 27q-12 70 -17 82q-23 84 -63 111q-2 0 -86 4q-45 2 -72 2h-65q-33 0 -47 -2q-18 0 -31 20q-12 23 -12 51q0 25 10 49q8 20 30 21l244 -4z" />
<glyph unicode="B" horiz-adv-x="2103" d="M119 -4v149q0 43 96 61.5t96 61.5l-2 1008q0 76 -96 92q-94 14 -94 59v146h710l5 -1577h-715zM991 1493q0 35 12.5 59.5t40.5 24.5l441 -2q182 0 311 -86q147 -98 148 -270q0 -137 -97 -240q-78 -82 -217 -143q141 -16 248 -117q111 -104 129 -238q0 -195 -123 -334 q-127 -145 -328 -145l-475 -6q-31 0 -47 20q-14 16 -14 50q0 37 18.5 69.5t42.5 32.5q144 0 246 74q117 86 117 237q0 127 -125 191q-106 53 -264 53q-18 0 -35 25q-14 23 -14 57.5t12 54.5q12 23 37 23q166 23 248 75q102 72 102 205q0 127 -98 187q-90 53 -258 53 q-28 -3 -43 24t-15 66z" />
<glyph unicode="C" horiz-adv-x="1699" d="M78 803q0 297 221 530q227 240 532 240q20 0 33 -27q12 -28 13 -61q0 -35 -13 -64q-12 -27 -33 -28q-137 -39 -180 -236q-25 -104 -24 -338q0 -160 10 -262q16 -158 61 -250q55 -113 156 -127q20 2 35 -24q12 -25 12 -60q0 -41 -10 -61q-12 -25 -33 -25q-51 -8 -113 -8 q-303 0 -493 254q-174 232 -174 547zM1014 1489q0 33 14 61q12 25 37 25q100 0 197 -29q129 -39 147 -41q25 41 61 58q43 18 84 18q55 0 56 -35l2 -538q0 -25 -23 -41q-20 -14 -53 -15q-59 0 -74 39l-24 84q-29 94 -56 137q-41 74 -135 129q-90 53 -182 66q-25 0 -37 23 q-14 28 -14 59zM1047 94q0 33 10 64q10 29 26 30q96 10 152 39q61 33 113 99q35 43 57 143l7 44l7 44q6 23 45 37q37 14 88 14q31 0 58 -10q25 -9 24 -31q0 -8 -2 -12q-23 -121 -33 -160q-41 -168 -94 -229q-72 -82 -129 -115q-82 -47 -192 -47q-49 0 -101 8q-16 -2 -26 23 q-10 26 -10 59z" />
<glyph unicode="D" horiz-adv-x="2052" d="M117 1575l717 2v-1581l-711 6l2 133q0 29 80 51q82 23 82 74l2 1079q0 43 -86 56q-84 12 -84 47zM1028 1464q0 51 10 74q12 29 33 29q350 0 604 -181q285 -205 285 -536q0 -391 -178 -600q-215 -254 -701 -254q-18 0 -28.5 26.5t-10.5 57.5q0 33 9 51q8 20 24 21 q150 29 225 137q61 88 84 248q12 94 13 288q0 262 -49 367q-72 147 -279 184q-18 -2 -31 27q-10 22 -10 61z" />
<glyph unicode="E" horiz-adv-x="1816" d="M106 0l3 98q0 47 81 74q84 29 84 70v1093q0 39 -84 57.5t-84 82.5l3 102h710l-2 -1579zM987 797q0 43 12 77q12 33 29 33h94q47 0 55.5 94.5t65.5 94.5h113v-547l-101 -4q-47 0 -63 86t-74 86h-90q-20 -2 -31 20q-10 25 -10 60zM1069 160q0 45 28.5 59t88.5 14 q6 0 18.5 -1t20.5 -1h43q33 0 82 9q31 6 61 28q59 49 74 217q16 170 96 170h145l3 -657h-656zM1069 1417l4 160h656l-3 -631h-145q-82 0 -94 154q-12 156 -76 207q-29 27 -59 30q-37 6 -86 6h-41q-8 0 -21.5 -1t-19.5 -1q-61 0 -82 13q-33 14 -33 63z" />
<glyph unicode="F" horiz-adv-x="1787" d="M104 45q0 33 11 57l2 6q2 5 4 9q0 51 80 69q82 18 82 56l2 1093q0 37 -84 56q-82 18 -82 84l2 102h710v-1313q0 -55 134 -74q131 -18 131 -90v-102l-977 2q-10 10 -13 20q-2 9 -2 25zM987 805q0 47 10 69q12 27 31 33h94q47 0 55.5 94.5t65.5 94.5h113v-547l-101 -4 q-47 0 -63 86t-74 86h-90q-16 -2 -31 24q-10 21 -10 64zM1069 1417l4 160h656l-3 -631h-145q-82 0 -94 154q-12 156 -76 207q-29 27 -59 30q-37 6 -86 6h-41q-8 0 -21.5 -1t-19.5 -1q-61 0 -82 13q-33 14 -33 63z" />
<glyph unicode="G" horiz-adv-x="1890" d="M86 782q0 307 217 549t510 242l-2 -170q-88 -14 -137 -119q-37 -83 -49 -209q-12 -125 -13 -268q0 -307 68 -471q55 -137 158 -176q18 -6 26 -31q8 -23 8 -53q0 -29 -10 -49q-10 -18 -26 -19q-29 -4 -82 -4q-280 0 -480 246q-188 235 -188 532zM987 86q0 37 10 57 q14 27 29 27q76 0 111 14q68 23 67 97l-2 264q0 27 -67 45q-66 18 -66 72l2 106l737 -2l-2 -90q0 -66 -104 -96q-51 -16 -51 -52l-2 -518q-10 -2 -29 -2h-23q-61 0 -100 21q-43 23 -70 71q-59 -59 -135 -88q-63 -23 -135 -22q-23 0 -63 4q-25 2 -60 10q-27 6 -37 29 q-10 24 -10 53zM1004 1479q0 37 12 65q13 29 30 29h3q121 0 213 -10q78 -8 159 -52q14 -8 25 13q28 49 55 49h109l4 -588h-84q-76 0 -90 64q-4 27 -10.5 58.5l-12.5 63.5q-46 114 -153 172q-82 43 -217 64q-23 0 -33 18q-10 21 -10 54z" />
<glyph unicode="H" horiz-adv-x="2258" d="M135 1575h883l-4 -131q0 -45 -82 -57.5t-82 -92.5v-409l201 6q20 2 34 -21q10 -18 11 -57q0 -37 -13 -68q-12 -33 -32 -28l-189 4v-471q0 -41 92 -57q94 -16 95 -80v-115h-904l2 108q0 57 92.5 82t92.5 68v1038q0 94 -99 101q-96 6 -96 53zM1247 801q0 33 10 63 q8 27 29 27l201 -6l-2 409q0 80 -82 92.5t-82 57.5l-2 131h883l-2 -127q0 -47 -97 -53q-98 -6 -98 -101v-1038q0 -41 92 -66q90 -25 90 -84l4 -108h-905l2 115q0 63 94 80q92 16 93 57v471l-189 -4q-18 -4 -28.5 22.5t-10.5 61.5z" />
<glyph unicode="I" horiz-adv-x="1044" d="M45 1575h911l-4 -131q0 -43 -96 -55q-94 -12 -94 -105v-1034q0 -45 98 -59.5t98 -77.5v-115h-903l2 108q0 57 92.5 82t92.5 68v1038q0 94 -99 101q-96 6 -96 53z" />
<glyph unicode="J" horiz-adv-x="1849" d="M84 401q0 132 92 228q92 94 221 94q90 0 174 -74q90 -80 91 -180q0 -18 -3 -25q-8 -55 -36 -102q-28 -46 -74 -80q27 -31 76 -53q47 -20 104 -21q23 0 39 2q25 -6 39 -34.5t14 -69.5q0 -37 -12 -59.5t-41 -22.5q-57 -8 -96 -8q-227 0 -398 102q-190 115 -190 303z M827 1575l922 -2l-2 -123q0 -41 -86 -61.5t-86 -59.5v-596q0 -176 -29 -303q-29 -125 -96 -219q-70 -96 -184.5 -155.5t-237.5 -59.5v1311q0 45 -100 67q-98 23 -99 84z" />
<glyph unicode="K" horiz-adv-x="2299" d="M135 1575h905l-2 -131q0 -45 -94 -57.5t-94 -92.5l2 -1044q0 -45 98.5 -59.5t98.5 -77.5v-115h-904l2 108q0 57 92.5 82t92.5 68v1038q0 94 -99 101q-96 6 -96 53zM1106 813l364 481q20 27 21 47q0 27 -80 52q-78 25 -78 63l2 119l652 -2l-2 -103q0 -61 -72 -73 q-74 -12 -101 -45l-274 -330l494 -778q29 -43 94 -66q51 -18 51 -59v-119l-846 -2l2 129q0 25 53.5 47.5t53.5 40.5q0 8 -4 14z" />
<glyph unicode="L" horiz-adv-x="1814" d="M84 1575h909l-2 -131q0 -43 -96 -55.5t-96 -104.5v-1286h-707l4 108q0 57 92 82q90 25 91 68v1038q0 94 -96.5 100.5t-96.5 53.5zM1083 0v123q0 70 134 76q131 6 174 37q100 76 149 245q14 53 31 158q14 27 39 43q23 14 53 14q29 0 45 -10q18 -12 18 -33v-653h-643z" />
<glyph unicode="M" horiz-adv-x="2521" d="M76 0v106q0 37 92 66q90 27 90 82v862l180 -321v-529q0 -51 94.5 -83.5t94.5 -82.5v-100h-551zM184 1436l4 139l695 -2l319 -690l246 692l2 -602l-299 -942q-6 -16 -21 -25q-16 -10 -34 -10q-35 0 -47 29l-590 1265q-23 47 -201 88q-74 19 -74 58zM1567 0v125q0 41 78 78 q80 37 79 80v1292h707l2 -121q0 -43 -100.5 -75.5t-100.5 -84.5v-1020q0 -45 97 -69q98 -25 98 -86l-2 -119h-858z" />
<glyph unicode="N" horiz-adv-x="1992" d="M66 0v106q0 39 90 66q92 29 92 82v899l178 -319v-568q0 -49 96 -84q94 -33 94 -82v-100h-550zM201 1473v102h661l815 -1057v-518h-241l-1092 1382q-20 23 -81.5 35.5t-61.5 55.5zM1313 1573h561l4 -115q0 -47 -100 -72q-102 -25 -103 -73v-477l-194 249v230q0 39 -113 92 q-53 25 -53 68z" />
<glyph unicode="O" horiz-adv-x="1886" d="M88 780q0 322 213 557q211 233 508 234q27 0 45 -33q16 -31 16 -74q0 -35 -14 -55t-47 -20q-121 -31 -164 -185q-27 -98 -27 -307v-109v-124q0 -291 60 -404q55 -102 168 -127q18 0 28 -18q10 -20 11 -43q0 -27 -11 -52q-8 -20 -28 -20q-313 0 -533 219 q-225 225 -225 561zM1020 61q0 25 10 50q10 23 27 22q147 35 196 193q33 100 33 338v124q0 162 -6 236q-12 138 -49 221q-47 106 -139 144q-20 0 -33 28q-14 37 -14.5 72t12.5 59q11 23 32 23h5q295 0 508 -234q213 -236 213 -557q0 -334 -221.5 -555t-534.5 -221 q-39 0 -39 57z" />
<glyph unicode="P" horiz-adv-x="2002" d="M90 45q0 33 10 57l2 6q2 5 4 9q0 51 82 69q80 18 80 56l2 1093q0 37 -82 56q-84 18 -84 84l2 102h711v-1313q0 -55 133 -74q131 -18 131 -90v-102l-977 2q-10 10 -12 20q-2 9 -2 25zM1014 1505q0 68 41 68l379 2q195 0 340 -127q156 -135 155 -338q0 -188 -141 -307 q-143 -121 -340 -121q-61 -2 -178 -2q-125 0 -203 -2q-27 0 -39 18q-14 20 -14 52q0 37 14 63.5t39 26.5q158 16 240 94q82 80 82 209t-74 200q-82 80 -248 80q-23 -2 -39 25q-14 22 -14 59z" />
<glyph unicode="Q" horiz-adv-x="2027" d="M92 813q0 326 227 545q225 217 545 217q23 0 35 -23q12 -20 12 -53q0 -29 -12 -51.5t-39 -30.5q-102 -68 -162 -239q-59 -174 -59 -371q0 -236 53 -401q59 -184 176 -238q20 -6 29 -31q8 -23 8 -55q0 -35 -10 -62q-10 -25 -27 -22q-311 0 -538 231q-238 242 -238 584z M1040 393q0 35 25 72q22 33 47 33h4q61 -6 146 -31q88 -25 90 -27q25 80 32 176q10 119 11 215q0 293 -72 441q-57 123 -172 141q-23 0 -35 24.5t-12 53.5t14 57q12 23 35 27q354 0 571 -221q211 -213 211 -547q0 -174 -63 -334q-66 -166 -168 -262q31 -45 84 -57l100 -13 l2 -145q-55 -20 -123 -21q-96 0 -198 43q-43 20 -84 45q-4 0 -109 -28q-135 -35 -205 -35q-20 -2 -32 12q-10 12 -11 37q0 23 12.5 47.5t30.5 36.5q8 6 29 20.5t29 18.5q39 27 51 64l-86 73q-55 39 -104.5 45t-49.5 39z" />
<glyph unicode="R" horiz-adv-x="2099" d="M82 45q0 33 10 57l2 6q2 5 4 9q0 51 82 69q80 18 80 56l2 1093q0 37 -82 56q-84 18 -84 84l2 102h711v-1313q0 -55 133 -73.5t133 -90.5l-2 -102l-977 2q-6 6 -10 20q-4 17 -4 25zM1001 801q0 31 16.5 57.5t43.5 26.5q139 0 219 49q102 66 102 207q0 104 -112 182 q-92 66 -189 66q-18 0 -30.5 24.5t-12.5 59.5q0 41 17 69q16 31 47 31h35q88 4 149 4q88 0 111 -4q219 0 356 -103q145 -109 145 -294q0 -133 -86 -226q-80 -84 -223 -121q82 -8 154 -59q55 -37 94 -104q33 -57 39 -197q6 -143 20 -190q10 -33 43 -48q20 -10 56 -10h16h6 q20 -6 29 -26q10 -25 10 -52q0 -31 -10 -55.5t-33 -30.5q-68 -31 -135.5 -43t-161.5 -12q-123 0 -178 23q-84 31 -133 120q-31 51 -41 119q-8 55 -8 150v41q0 109 -21 155q-23 51 -61 82q-49 23 -117 35l-119 14q-16 0 -26.5 16.5t-10.5 43.5z" />
<glyph unicode="S" horiz-adv-x="1429" d="M80 502h145q20 -14 37 -62q37 -119 43 -125q47 -61 94 -96q63 -45 129 -45q27 6 39.5 -22.5t12.5 -69.5q0 -37 -9 -55q-8 -20 -20 -23q-8 -2 -14 -2h-13q-43 0 -108.5 33t-98.5 33q-27 0 -53 -17q-29 -18 -51 -49h-129zM100 1077q0 201 141.5 348.5t338.5 147.5 q29 -6 41 -33q12 -29 12 -65.5t-10 -57.5q-12 -27 -29 -26q-70 -14 -117 -66q-49 -52 -49 -111q0 -35 23 -67q86 -126 276 -141q274 -25 307 -39q115 -41 205 -140q88 -98 117 -213q10 -55 10 -96q0 -217 -174 -366q-172 -147 -416 -148h-4q-18 0 -29 25q-10 23 -10 69 q0 41 8 66q10 29 27 35q123 12 180 53q51 35 51 92q0 109 -131 160q-55 23 -260 63q-211 43 -352 172q-156 143 -156 338zM788 1493q0 37 9 55q10 23 18 25q4 1 7 1q2 0 5 -0.5t4 -0.5h13q43 0 108.5 -33t98.5 -33q27 0 53 17q29 18 51 49h129l2 -494l-143 -4q-23 16 -39 62 q-37 117 -43 123q-47 61 -94 96q-63 45 -127 45q-27 -6 -39 22q-13 27 -13 70z" />
<glyph unicode="T" horiz-adv-x="2039" d="M98 1573l396 2l-2 -117q0 -59 -99 -108q-96 -47 -96 -105l-2 -323q0 -61 -53 -99q-52 -37 -117 -37q-18 0 -25 2zM559 -2l4 108q0 57 90 82q92 25 92 68v1319h521v-1325q0 -45 98 -59.5t98 -77.5l2 -115h-905zM1542 1575l393 -2v-785q-6 -2 -26 -2q-61 0 -114.5 37 t-53.5 99l-2 323q0 43 -131 123q-63 37 -64 90z" />
<glyph unicode="U" horiz-adv-x="1980" d="M117 1436l2 137h190h301h363v-117q0 -45 -78 -88q-76 -43 -76 -68l-4 -894q0 -111 64 -168q49 -47 143 -66q18 -2 33 -33q14 -29 14 -65q0 -33 -16.5 -55.5t-53.5 -22.5q-279 0 -462 94q-236 119 -236 365l2 805q0 57 -94 88q-92 31 -92 88zM1235 96q0 31 8 54 q10 29 27 38q123 0 174 150q37 111 37 305l-2 688q0 43 -99 62q-100 18 -100 63v119l592 -2v-115q0 -27 -121 -76q-57 -25 -57 -61v-678q0 -279 -80 -440q-100 -205 -320 -205q-27 0 -43 28.5t-16 69.5z" />
<glyph unicode="V" horiz-adv-x="1798" d="M86 1462l2 111l858 4l-4 -125q0 -55 -74 -82q-74 -28 -73 -55q0 -14 4 -23l379 -1052l-72 -238l-348 -6l-502 1298q-14 37 -92 78t-78 90zM1157 805l152 504q2 6 1 11q0 34 -65 62q-78 35 -78 76l-4 117h559l-6 -117q0 -61 -86 -80q-90 -18 -104 -67l-254 -789z" />
<glyph unicode="W" horiz-adv-x="2947" d="M133 1456v121l817 -4l15 -103q6 -41 -76 -69q-80 -28 -80 -80q0 -18 6 -41l225 -723l193 457l96 -299l-264 -719l-344 6l-422 1278q-8 29 -88 72q-78 41 -78 104zM1251 1573h832l2 -131q0 -33 -78 -56q-67 -19 -67 -45q0 -4 2 -8l315 -1083l-98 -248l-338 -10l-391 1282 q-27 84 -101 110q-76 27 -76 107zM2253 844l184 465q4 8 4 18q0 20 -74 55q-72 33 -71 76l-6 117h561l-6 -117q0 -61 -86 -80q-90 -18 -105 -67l-287 -752z" />
<glyph unicode="X" horiz-adv-x="1935" d="M98 92q0 55 56 76q84 33 116 65l303 322l113 -135l-154 -168q-12 -12 -12 -27q0 -12 98 -75q47 -31 48 -64l2 -90h-568zM152 1477l2 96h893l8 -115q0 -33 -76 -72q-74 -37 -74 -65q0 -18 19 -41l780 -1049q18 -27 68 -47q76 -31 75 -67l-4 -117l-956 -4v121q0 45 75.5 88 t75.5 67q0 12 -10 27l-735 1042q-15 25 -86 62q-55 31 -55 74zM1243 1206l109 115q20 20 20 41q0 27 -61 59q-59 33 -60 52v102l582 2l-2 -113q0 -51 -68 -71q-92 -29 -116 -52l-285 -264z" />
<glyph unicode="Y" horiz-adv-x="1986" d="M106 1442l3 133l849 -2v-133q0 -43 -73 -72q-72 -27 -72 -49q0 -8 6 -21l342 -677l-4 -328q0 -45 98.5 -69.5t98.5 -80.5v-143h-910v127q0 51 100.5 88t100.5 119l-2 268l-391 692q-16 31 -66 58q-80 41 -80 90zM1272 969l196 358q6 16 7 21q0 27 -68 51q-70 25 -70 51 q-2 4 -2 12q-8 27 -8 58q0 37 19 53h534l-4 -109q0 -55 -70 -92q-90 -45 -116 -88l-308 -514z" />
<glyph unicode="Z" horiz-adv-x="1697" d="M59 1567h734l-111 -193h-45q-29 0 -43 2q-84 0 -139 -16q-66 -20 -121 -82q-49 -55 -82 -152q-4 -10 -21 -84q-12 -29 -40.5 -45t-61.5 -16q-29 0 -47 12q-20 14 -21 37zM70 -4l917 1577h561l-946 -1573zM877 2l110 193q131 0 199 20q94 27 166 109q47 53 75 182 q4 18 17 115q8 29 39 45q29 16 61 16q28 0 49 -12q20 -12 21 -37l-4 -631h-733z" />
<glyph unicode="a" horiz-adv-x="2045" d="M86 100q0 59 84 99q100 47 121 98l346 825q2 -2 39 -22q66 -102 65 -187q0 -16 -6 -26l-213 -549q-9 -18 -12 -37q-2 -12 -2 -31q0 -57 92 -77q94 -20 94 -66l8 -131l-616 6v98zM750 1290l106 283l387 2l500 -1305q15 -40 61 -61q94 -45 105 -80l28 -129l-946 2l17 123 q6 41 94 55q90 16 90 49q0 6 -8 27q-12 70 -17 82q-23 84 -63 111q-2 0 -86 4q-45 2 -72 2h-65q-33 0 -47 -2q-18 0 -31 20q-12 23 -12 51q0 25 10 49q8 20 30 21l244 -4z" />
<glyph unicode="b" horiz-adv-x="2103" d="M119 -4v149q0 43 96 61.5t96 61.5l-2 1008q0 76 -96 92q-94 14 -94 59v146h710l5 -1577h-715zM991 1493q0 35 12.5 59.5t40.5 24.5l441 -2q182 0 311 -86q147 -98 148 -270q0 -137 -97 -240q-78 -82 -217 -143q141 -16 248 -117q111 -104 129 -238q0 -195 -123 -334 q-127 -145 -328 -145l-475 -6q-31 0 -47 20q-14 16 -14 50q0 37 18.5 69.5t42.5 32.5q144 0 246 74q117 86 117 237q0 127 -125 191q-106 53 -264 53q-18 0 -35 25q-14 23 -14 57.5t12 54.5q12 23 37 23q166 23 248 75q102 72 102 205q0 127 -98 187q-90 53 -258 53 q-28 -3 -43 24t-15 66z" />
<glyph unicode="c" horiz-adv-x="1699" d="M78 803q0 297 221 530q227 240 532 240q20 0 33 -27q12 -28 13 -61q0 -35 -13 -64q-12 -27 -33 -28q-137 -39 -180 -236q-25 -104 -24 -338q0 -160 10 -262q16 -158 61 -250q55 -113 156 -127q20 2 35 -24q12 -25 12 -60q0 -41 -10 -61q-12 -25 -33 -25q-51 -8 -113 -8 q-303 0 -493 254q-174 232 -174 547zM1014 1489q0 33 14 61q12 25 37 25q100 0 197 -29q129 -39 147 -41q25 41 61 58q43 18 84 18q55 0 56 -35l2 -538q0 -25 -23 -41q-20 -14 -53 -15q-59 0 -74 39l-24 84q-29 94 -56 137q-41 74 -135 129q-90 53 -182 66q-25 0 -37 23 q-14 28 -14 59zM1047 94q0 33 10 64q10 29 26 30q96 10 152 39q61 33 113 99q35 43 57 143l7 44l7 44q6 23 45 37q37 14 88 14q31 0 58 -10q25 -9 24 -31q0 -8 -2 -12q-23 -121 -33 -160q-41 -168 -94 -229q-72 -82 -129 -115q-82 -47 -192 -47q-49 0 -101 8q-16 -2 -26 23 q-10 26 -10 59z" />
<glyph unicode="d" horiz-adv-x="2052" d="M117 1575l717 2v-1581l-711 6l2 133q0 29 80 51q82 23 82 74l2 1079q0 43 -86 56q-84 12 -84 47zM1028 1464q0 51 10 74q12 29 33 29q350 0 604 -181q285 -205 285 -536q0 -391 -178 -600q-215 -254 -701 -254q-18 0 -28.5 26.5t-10.5 57.5q0 33 9 51q8 20 24 21 q150 29 225 137q61 88 84 248q12 94 13 288q0 262 -49 367q-72 147 -279 184q-18 -2 -31 27q-10 22 -10 61z" />
<glyph unicode="e" horiz-adv-x="1816" d="M106 0l3 98q0 47 81 74q84 29 84 70v1093q0 39 -84 57.5t-84 82.5l3 102h710l-2 -1579zM987 797q0 43 12 77q12 33 29 33h94q47 0 55.5 94.5t65.5 94.5h113v-547l-101 -4q-47 0 -63 86t-74 86h-90q-20 -2 -31 20q-10 25 -10 60zM1069 160q0 45 28.5 59t88.5 14 q6 0 18.5 -1t20.5 -1h43q33 0 82 9q31 6 61 28q59 49 74 217q16 170 96 170h145l3 -657h-656zM1069 1417l4 160h656l-3 -631h-145q-82 0 -94 154q-12 156 -76 207q-29 27 -59 30q-37 6 -86 6h-41q-8 0 -21.5 -1t-19.5 -1q-61 0 -82 13q-33 14 -33 63z" />
<glyph unicode="f" horiz-adv-x="1787" d="M104 45q0 33 11 57l2 6q2 5 4 9q0 51 80 69q82 18 82 56l2 1093q0 37 -84 56q-82 18 -82 84l2 102h710v-1313q0 -55 134 -74q131 -18 131 -90v-102l-977 2q-10 10 -13 20q-2 9 -2 25zM987 805q0 47 10 69q12 27 31 33h94q47 0 55.5 94.5t65.5 94.5h113v-547l-101 -4 q-47 0 -63 86t-74 86h-90q-16 -2 -31 24q-10 21 -10 64zM1069 1417l4 160h656l-3 -631h-145q-82 0 -94 154q-12 156 -76 207q-29 27 -59 30q-37 6 -86 6h-41q-8 0 -21.5 -1t-19.5 -1q-61 0 -82 13q-33 14 -33 63z" />
<glyph unicode="g" horiz-adv-x="1890" d="M86 782q0 307 217 549t510 242l-2 -170q-88 -14 -137 -119q-37 -83 -49 -209q-12 -125 -13 -268q0 -307 68 -471q55 -137 158 -176q18 -6 26 -31q8 -23 8 -53q0 -29 -10 -49q-10 -18 -26 -19q-29 -4 -82 -4q-280 0 -480 246q-188 235 -188 532zM987 86q0 37 10 57 q14 27 29 27q76 0 111 14q68 23 67 97l-2 264q0 27 -67 45q-66 18 -66 72l2 106l737 -2l-2 -90q0 -66 -104 -96q-51 -16 -51 -52l-2 -518q-10 -2 -29 -2h-23q-61 0 -100 21q-43 23 -70 71q-59 -59 -135 -88q-63 -23 -135 -22q-23 0 -63 4q-25 2 -60 10q-27 6 -37 29 q-10 24 -10 53zM1004 1479q0 37 12 65q13 29 30 29h3q121 0 213 -10q78 -8 159 -52q14 -8 25 13q28 49 55 49h109l4 -588h-84q-76 0 -90 64q-4 27 -10.5 58.5l-12.5 63.5q-46 114 -153 172q-82 43 -217 64q-23 0 -33 18q-10 21 -10 54z" />
<glyph unicode="h" horiz-adv-x="2258" d="M135 1575h883l-4 -131q0 -45 -82 -57.5t-82 -92.5v-409l201 6q20 2 34 -21q10 -18 11 -57q0 -37 -13 -68q-12 -33 -32 -28l-189 4v-471q0 -41 92 -57q94 -16 95 -80v-115h-904l2 108q0 57 92.5 82t92.5 68v1038q0 94 -99 101q-96 6 -96 53zM1247 801q0 33 10 63 q8 27 29 27l201 -6l-2 409q0 80 -82 92.5t-82 57.5l-2 131h883l-2 -127q0 -47 -97 -53q-98 -6 -98 -101v-1038q0 -41 92 -66q90 -25 90 -84l4 -108h-905l2 115q0 63 94 80q92 16 93 57v471l-189 -4q-18 -4 -28.5 22.5t-10.5 61.5z" />
<glyph unicode="i" horiz-adv-x="1044" d="M45 1575h911l-4 -131q0 -43 -96 -55q-94 -12 -94 -105v-1034q0 -45 98 -59.5t98 -77.5v-115h-903l2 108q0 57 92.5 82t92.5 68v1038q0 94 -99 101q-96 6 -96 53z" />
<glyph unicode="j" horiz-adv-x="1849" d="M84 401q0 132 92 228q92 94 221 94q90 0 174 -74q90 -80 91 -180q0 -18 -3 -25q-8 -55 -36 -102q-28 -46 -74 -80q27 -31 76 -53q47 -20 104 -21q23 0 39 2q25 -6 39 -34.5t14 -69.5q0 -37 -12 -59.5t-41 -22.5q-57 -8 -96 -8q-227 0 -398 102q-190 115 -190 303z M827 1575l922 -2l-2 -123q0 -41 -86 -61.5t-86 -59.5v-596q0 -176 -29 -303q-29 -125 -96 -219q-70 -96 -184.5 -155.5t-237.5 -59.5v1311q0 45 -100 67q-98 23 -99 84z" />
<glyph unicode="k" horiz-adv-x="2299" d="M135 1575h905l-2 -131q0 -45 -94 -57.5t-94 -92.5l2 -1044q0 -45 98.5 -59.5t98.5 -77.5v-115h-904l2 108q0 57 92.5 82t92.5 68v1038q0 94 -99 101q-96 6 -96 53zM1106 813l364 481q20 27 21 47q0 27 -80 52q-78 25 -78 63l2 119l652 -2l-2 -103q0 -61 -72 -73 q-74 -12 -101 -45l-274 -330l494 -778q29 -43 94 -66q51 -18 51 -59v-119l-846 -2l2 129q0 25 53.5 47.5t53.5 40.5q0 8 -4 14z" />
<glyph unicode="l" horiz-adv-x="1814" d="M84 1575h909l-2 -131q0 -43 -96 -55.5t-96 -104.5v-1286h-707l4 108q0 57 92 82q90 25 91 68v1038q0 94 -96.5 100.5t-96.5 53.5zM1083 0v123q0 70 134 76q131 6 174 37q100 76 149 245q14 53 31 158q14 27 39 43q23 14 53 14q29 0 45 -10q18 -12 18 -33v-653h-643z" />
<glyph unicode="m" horiz-adv-x="2521" d="M76 0v106q0 37 92 66q90 27 90 82v862l180 -321v-529q0 -51 94.5 -83.5t94.5 -82.5v-100h-551zM184 1436l4 139l695 -2l319 -690l246 692l2 -602l-299 -942q-6 -16 -21 -25q-16 -10 -34 -10q-35 0 -47 29l-590 1265q-23 47 -201 88q-74 19 -74 58zM1567 0v125q0 41 78 78 q80 37 79 80v1292h707l2 -121q0 -43 -100.5 -75.5t-100.5 -84.5v-1020q0 -45 97 -69q98 -25 98 -86l-2 -119h-858z" />
<glyph unicode="n" horiz-adv-x="1992" d="M66 0v106q0 39 90 66q92 29 92 82v899l178 -319v-568q0 -49 96 -84q94 -33 94 -82v-100h-550zM201 1473v102h661l815 -1057v-518h-241l-1092 1382q-20 23 -81.5 35.5t-61.5 55.5zM1313 1573h561l4 -115q0 -47 -100 -72q-102 -25 -103 -73v-477l-194 249v230q0 39 -113 92 q-53 25 -53 68z" />
<glyph unicode="o" horiz-adv-x="1886" d="M88 780q0 322 213 557q211 233 508 234q27 0 45 -33q16 -31 16 -74q0 -35 -14 -55t-47 -20q-121 -31 -164 -185q-27 -98 -27 -307v-109v-124q0 -291 60 -404q55 -102 168 -127q18 0 28 -18q10 -20 11 -43q0 -27 -11 -52q-8 -20 -28 -20q-313 0 -533 219 q-225 225 -225 561zM1020 61q0 25 10 50q10 23 27 22q147 35 196 193q33 100 33 338v124q0 162 -6 236q-12 138 -49 221q-47 106 -139 144q-20 0 -33 28q-14 37 -14.5 72t12.5 59q11 23 32 23h5q295 0 508 -234q213 -236 213 -557q0 -334 -221.5 -555t-534.5 -221 q-39 0 -39 57z" />
<glyph unicode="p" horiz-adv-x="2002" d="M90 45q0 33 10 57l2 6q2 5 4 9q0 51 82 69q80 18 80 56l2 1093q0 37 -82 56q-84 18 -84 84l2 102h711v-1313q0 -55 133 -74q131 -18 131 -90v-102l-977 2q-10 10 -12 20q-2 9 -2 25zM1014 1505q0 68 41 68l379 2q195 0 340 -127q156 -135 155 -338q0 -188 -141 -307 q-143 -121 -340 -121q-61 -2 -178 -2q-125 0 -203 -2q-27 0 -39 18q-14 20 -14 52q0 37 14 63.5t39 26.5q158 16 240 94q82 80 82 209t-74 200q-82 80 -248 80q-23 -2 -39 25q-14 22 -14 59z" />
<glyph unicode="q" horiz-adv-x="2027" d="M92 813q0 326 227 545q225 217 545 217q23 0 35 -23q12 -20 12 -53q0 -29 -12 -51.5t-39 -30.5q-102 -68 -162 -239q-59 -174 -59 -371q0 -236 53 -401q59 -184 176 -238q20 -6 29 -31q8 -23 8 -55q0 -35 -10 -62q-10 -25 -27 -22q-311 0 -538 231q-238 242 -238 584z M1040 393q0 35 25 72q22 33 47 33h4q61 -6 146 -31q88 -25 90 -27q25 80 32 176q10 119 11 215q0 293 -72 441q-57 123 -172 141q-23 0 -35 24.5t-12 53.5t14 57q12 23 35 27q354 0 571 -221q211 -213 211 -547q0 -174 -63 -334q-66 -166 -168 -262q31 -45 84 -57l100 -13 l2 -145q-55 -20 -123 -21q-96 0 -198 43q-43 20 -84 45q-4 0 -109 -28q-135 -35 -205 -35q-20 -2 -32 12q-10 12 -11 37q0 23 12.5 47.5t30.5 36.5q8 6 29 20.5t29 18.5q39 27 51 64l-86 73q-55 39 -104.5 45t-49.5 39z" />
<glyph unicode="r" horiz-adv-x="2099" d="M82 45q0 33 10 57l2 6q2 5 4 9q0 51 82 69q80 18 80 56l2 1093q0 37 -82 56q-84 18 -84 84l2 102h711v-1313q0 -55 133 -73.5t133 -90.5l-2 -102l-977 2q-6 6 -10 20q-4 17 -4 25zM1001 801q0 31 16.5 57.5t43.5 26.5q139 0 219 49q102 66 102 207q0 104 -112 182 q-92 66 -189 66q-18 0 -30.5 24.5t-12.5 59.5q0 41 17 69q16 31 47 31h35q88 4 149 4q88 0 111 -4q219 0 356 -103q145 -109 145 -294q0 -133 -86 -226q-80 -84 -223 -121q82 -8 154 -59q55 -37 94 -104q33 -57 39 -197q6 -143 20 -190q10 -33 43 -48q20 -10 56 -10h16h6 q20 -6 29 -26q10 -25 10 -52q0 -31 -10 -55.5t-33 -30.5q-68 -31 -135.5 -43t-161.5 -12q-123 0 -178 23q-84 31 -133 120q-31 51 -41 119q-8 55 -8 150v41q0 109 -21 155q-23 51 -61 82q-49 23 -117 35l-119 14q-16 0 -26.5 16.5t-10.5 43.5z" />
<glyph unicode="s" horiz-adv-x="1429" d="M80 502h145q20 -14 37 -62q37 -119 43 -125q47 -61 94 -96q63 -45 129 -45q27 6 39.5 -22.5t12.5 -69.5q0 -37 -9 -55q-8 -20 -20 -23q-8 -2 -14 -2h-13q-43 0 -108.5 33t-98.5 33q-27 0 -53 -17q-29 -18 -51 -49h-129zM100 1077q0 201 141.5 348.5t338.5 147.5 q29 -6 41 -33q12 -29 12 -65.5t-10 -57.5q-12 -27 -29 -26q-70 -14 -117 -66q-49 -52 -49 -111q0 -35 23 -67q86 -126 276 -141q274 -25 307 -39q115 -41 205 -140q88 -98 117 -213q10 -55 10 -96q0 -217 -174 -366q-172 -147 -416 -148h-4q-18 0 -29 25q-10 23 -10 69 q0 41 8 66q10 29 27 35q123 12 180 53q51 35 51 92q0 109 -131 160q-55 23 -260 63q-211 43 -352 172q-156 143 -156 338zM788 1493q0 37 9 55q10 23 18 25q4 1 7 1q2 0 5 -0.5t4 -0.5h13q43 0 108.5 -33t98.5 -33q27 0 53 17q29 18 51 49h129l2 -494l-143 -4q-23 16 -39 62 q-37 117 -43 123q-47 61 -94 96q-63 45 -127 45q-27 -6 -39 22q-13 27 -13 70z" />
<glyph unicode="t" horiz-adv-x="2039" d="M98 1573l396 2l-2 -117q0 -59 -99 -108q-96 -47 -96 -105l-2 -323q0 -61 -53 -99q-52 -37 -117 -37q-18 0 -25 2zM559 -2l4 108q0 57 90 82q92 25 92 68v1319h521v-1325q0 -45 98 -59.5t98 -77.5l2 -115h-905zM1542 1575l393 -2v-785q-6 -2 -26 -2q-61 0 -114.5 37 t-53.5 99l-2 323q0 43 -131 123q-63 37 -64 90z" />
<glyph unicode="u" horiz-adv-x="1980" d="M117 1436l2 137h190h301h363v-117q0 -45 -78 -88q-76 -43 -76 -68l-4 -894q0 -111 64 -168q49 -47 143 -66q18 -2 33 -33q14 -29 14 -65q0 -33 -16.5 -55.5t-53.5 -22.5q-279 0 -462 94q-236 119 -236 365l2 805q0 57 -94 88q-92 31 -92 88zM1235 96q0 31 8 54 q10 29 27 38q123 0 174 150q37 111 37 305l-2 688q0 43 -99 62q-100 18 -100 63v119l592 -2v-115q0 -27 -121 -76q-57 -25 -57 -61v-678q0 -279 -80 -440q-100 -205 -320 -205q-27 0 -43 28.5t-16 69.5z" />
<glyph unicode="v" horiz-adv-x="1798" d="M86 1462l2 111l858 4l-4 -125q0 -55 -74 -82q-74 -28 -73 -55q0 -14 4 -23l379 -1052l-72 -238l-348 -6l-502 1298q-14 37 -92 78t-78 90zM1157 805l152 504q2 6 1 11q0 34 -65 62q-78 35 -78 76l-4 117h559l-6 -117q0 -61 -86 -80q-90 -18 -104 -67l-254 -789z" />
<glyph unicode="w" horiz-adv-x="2947" d="M133 1456v121l817 -4l15 -103q6 -41 -76 -69q-80 -28 -80 -80q0 -18 6 -41l225 -723l193 457l96 -299l-264 -719l-344 6l-422 1278q-8 29 -88 72q-78 41 -78 104zM1251 1573h832l2 -131q0 -33 -78 -56q-67 -19 -67 -45q0 -4 2 -8l315 -1083l-98 -248l-338 -10l-391 1282 q-27 84 -101 110q-76 27 -76 107zM2253 844l184 465q4 8 4 18q0 20 -74 55q-72 33 -71 76l-6 117h561l-6 -117q0 -61 -86 -80q-90 -18 -105 -67l-287 -752z" />
<glyph unicode="x" horiz-adv-x="1935" d="M98 92q0 55 56 76q84 33 116 65l303 322l113 -135l-154 -168q-12 -12 -12 -27q0 -12 98 -75q47 -31 48 -64l2 -90h-568zM152 1477l2 96h893l8 -115q0 -33 -76 -72q-74 -37 -74 -65q0 -18 19 -41l780 -1049q18 -27 68 -47q76 -31 75 -67l-4 -117l-956 -4v121q0 45 75.5 88 t75.5 67q0 12 -10 27l-735 1042q-15 25 -86 62q-55 31 -55 74zM1243 1206l109 115q20 20 20 41q0 27 -61 59q-59 33 -60 52v102l582 2l-2 -113q0 -51 -68 -71q-92 -29 -116 -52l-285 -264z" />
<glyph unicode="y" horiz-adv-x="1986" d="M106 1442l3 133l849 -2v-133q0 -43 -73 -72q-72 -27 -72 -49q0 -8 6 -21l342 -677l-4 -328q0 -45 98.5 -69.5t98.5 -80.5v-143h-910v127q0 51 100.5 88t100.5 119l-2 268l-391 692q-16 31 -66 58q-80 41 -80 90zM1272 969l196 358q6 16 7 21q0 27 -68 51q-70 25 -70 51 q-2 4 -2 12q-8 27 -8 58q0 37 19 53h534l-4 -109q0 -55 -70 -92q-90 -45 -116 -88l-308 -514z" />
<glyph unicode="z" horiz-adv-x="1697" d="M59 1567h734l-111 -193h-45q-29 0 -43 2q-84 0 -139 -16q-66 -20 -121 -82q-49 -55 -82 -152q-4 -10 -21 -84q-12 -29 -40.5 -45t-61.5 -16q-29 0 -47 12q-20 14 -21 37zM70 -4l917 1577h561l-946 -1573zM877 2l110 193q131 0 199 20q94 27 166 109q47 53 75 182 q4 18 17 115q8 29 39 45q29 16 61 16q28 0 49 -12q20 -12 21 -37l-4 -631h-733z" />
<glyph unicode="&#xad;" horiz-adv-x="983" d="M86 774v227h811v-227h-811z" />
<glyph unicode="&#x2000;" horiz-adv-x="825" />
<glyph unicode="&#x2001;" horiz-adv-x="1652" />
<glyph unicode="&#x2002;" horiz-adv-x="825" />
<glyph unicode="&#x2003;" horiz-adv-x="1652" />
<glyph unicode="&#x2004;" horiz-adv-x="550" />
<glyph unicode="&#x2005;" horiz-adv-x="411" />
<glyph unicode="&#x2006;" horiz-adv-x="274" />
<glyph unicode="&#x2007;" horiz-adv-x="274" />
<glyph unicode="&#x2008;" horiz-adv-x="204" />
<glyph unicode="&#x2009;" horiz-adv-x="329" />
<glyph unicode="&#x200a;" horiz-adv-x="90" />
<glyph unicode="&#x2010;" horiz-adv-x="983" d="M86 774v227h811v-227h-811z" />
<glyph unicode="&#x2011;" horiz-adv-x="983" d="M86 774v227h811v-227h-811z" />
<glyph unicode="&#x2012;" horiz-adv-x="983" d="M86 774v227h811v-227h-811z" />
<glyph unicode="&#x2013;" horiz-adv-x="1024" d="M86 774v227h852v-227h-852z" />
<glyph unicode="&#x2014;" horiz-adv-x="2048" d="M86 774v227h1876v-227h-1876z" />
<glyph unicode="&#x2018;" d="M61 1292q0 109 76 184.5t184.5 75.5t184.5 -75.5t76 -184.5q0 -63 -49.5 -130.5t-102.5 -106.5q0 -78 78 -226q23 -43 82 -137l-107 88l-207 172l-137 117q-41 37 -57 96q-21 72 -21 127z" />
<glyph unicode="&#x2019;" d="M63 692q51 86 78 137q80 154 80 226q-55 37 -100 102q-49 74 -49 135q0 109 75.5 184.5t184 75.5t184.5 -75q74 -74 74 -185q0 -59 -19 -125q-18 -61 -57 -98q-31 -29 -137 -117l-207 -170z" />
<glyph unicode="&#x201c;" horiz-adv-x="1236" d="M51 1292q0 109 76 184.5t184.5 75.5t184 -75.5t75.5 -184.5q0 -66 -47 -131t-104 -106q0 -76 80 -226q29 -59 80 -137l-105 88l-207 172l-139 117q-41 37 -57 96q-21 72 -21 127zM639 1292q0 111 74 185q76 76 184.5 75.5t184 -76t75.5 -184.5q0 -66 -47 -131 q-49 -68 -102 -106q0 -78 77 -226q29 -59 80 -137l-104 88l-207 172l-139 117q-41 37 -58 96q-18 64 -18 127z" />
<glyph unicode="&#x201d;" horiz-adv-x="1236" d="M63 692q51 86 78 137q80 154 80 226q-55 37 -100 102q-49 74 -49 135q0 109 75.5 184.5t184 75.5t184.5 -75q74 -74 74 -185q0 -59 -19 -125q-18 -61 -57 -98q-31 -29 -137 -117l-207 -170zM649 692q51 86 78 137q82 158 82 226q-59 41 -102 102q-49 74 -50 135 q0 109 76 184.5t184.5 75.5t184.5 -75.5t76 -184.5q0 -53 -21 -125q-18 -61 -57 -98q-31 -29 -137 -117l-207 -170z" />
<glyph unicode="&#x2026;" horiz-adv-x="1937" d="M1364 252q0 109 75.5 184.5t184 75.5t184.5 -76q74 -74 74 -184.5t-74 -183.5q-76 -76 -184.5 -76t-184 75.5t-75.5 184.5zM717 252q0 109 75.5 184.5t184 75.5t184.5 -76q74 -74 74 -184.5t-74 -183.5q-76 -76 -184.5 -76t-184 75.5t-75.5 184.5zM72 252 q0 109 75.5 184.5t184 75.5t184.5 -76q74 -74 74 -184.5t-74 -183.5q-76 -76 -184.5 -76t-184 75.5t-75.5 184.5z" />
<glyph unicode="&#x202f;" horiz-adv-x="329" />
<glyph unicode="&#x205f;" horiz-adv-x="411" />
<glyph unicode="&#x2122;" horiz-adv-x="4560" d="M2116 0v106q0 37 92 66q90 27 90 82v862l180 -321v-529q0 -51 94.5 -83.5t94.5 -82.5v-100h-551zM2224 1436l4 139l695 -2l319 -690l246 692l2 -602l-299 -942q-6 -16 -21 -25q-16 -10 -34 -10q-35 0 -47 29l-590 1265q-23 47 -201 88q-74 19 -74 58zM3607 0v125 q0 41 78 78q80 37 79 80v1292h707l2 -121q0 -43 -100.5 -75.5t-100.5 -84.5v-1020q0 -45 97 -69q98 -25 98 -86l-2 -119h-858zM98 1573l396 2l-2 -117q0 -59 -99 -108q-96 -47 -96 -105l-2 -323q0 -61 -53 -99q-52 -37 -117 -37q-18 0 -25 2zM559 -2l4 108q0 57 90 82 q92 25 92 68v1319h521v-1325q0 -45 98 -59.5t98 -77.5l2 -115h-905zM1542 1575l393 -2v-785q-6 -2 -26 -2q-61 0 -114.5 37t-53.5 99l-2 323q0 43 -131 123q-63 37 -64 90z" />
<glyph unicode="&#xe000;" horiz-adv-x="1575" d="M0 1575h1575v-1575h-1575v1575z" />
<glyph unicode="&#xfb01;" horiz-adv-x="2832" d="M1833 1575h911l-4 -131q0 -43 -96 -55q-94 -12 -94 -105v-1034q0 -45 98 -59.5t98 -77.5v-115h-903l2 108q0 57 92.5 82t92.5 68v1038q0 94 -99 101q-96 6 -96 53zM104 45q0 33 11 57l2 6q2 5 4 9q0 51 80 69q82 18 82 56l2 1093q0 37 -84 56q-82 18 -82 84l2 102h710 v-1313q0 -55 134 -74q131 -18 131 -90v-102l-977 2q-10 10 -13 20q-2 9 -2 25zM987 805q0 47 10 69q12 27 31 33h94q47 0 55.5 94.5t65.5 94.5h113v-547l-101 -4q-47 0 -63 86t-74 86h-90q-16 -2 -31 24q-10 21 -10 64zM1069 1417l4 160h656l-3 -631h-145q-82 0 -94 154 q-12 156 -76 207q-29 27 -59 30q-37 6 -86 6h-41q-8 0 -21.5 -1t-19.5 -1q-61 0 -82 13q-33 14 -33 63z" />
<glyph unicode="&#xfb02;" horiz-adv-x="3602" d="M1872 1575h909l-2 -131q0 -43 -96 -55.5t-96 -104.5v-1286h-707l4 108q0 57 92 82q90 25 91 68v1038q0 94 -96.5 100.5t-96.5 53.5zM2871 0v123q0 70 134 76q131 6 174 37q100 76 149 245q14 53 31 158q14 27 39 43q23 14 53 14q29 0 45 -10q18 -12 18 -33v-653h-643z M104 45q0 33 11 57l2 6q2 5 4 9q0 51 80 69q82 18 82 56l2 1093q0 37 -84 56q-82 18 -82 84l2 102h710v-1313q0 -55 134 -74q131 -18 131 -90v-102l-977 2q-10 10 -13 20q-2 9 -2 25zM987 805q0 47 10 69q12 27 31 33h94q47 0 55.5 94.5t65.5 94.5h113v-547l-101 -4 q-47 0 -63 86t-74 86h-90q-16 -2 -31 24q-10 21 -10 64zM1069 1417l4 160h656l-3 -631h-145q-82 0 -94 154q-12 156 -76 207q-29 27 -59 30q-37 6 -86 6h-41q-8 0 -21.5 -1t-19.5 -1q-61 0 -82 13q-33 14 -33 63z" />
<glyph unicode="&#xfb03;" horiz-adv-x="4620" d="M3621 1575h911l-4 -131q0 -43 -96 -55q-94 -12 -94 -105v-1034q0 -45 98 -59.5t98 -77.5v-115h-903l2 108q0 57 92.5 82t92.5 68v1038q0 94 -99 101q-96 6 -96 53zM1892 45q0 33 11 57l2 6q2 5 4 9q0 51 80 69q82 18 82 56l2 1093q0 37 -84 56q-82 18 -82 84l2 102h710 v-1313q0 -55 134 -74q131 -18 131 -90v-102l-977 2q-10 10 -13 20q-2 9 -2 25zM2775 805q0 47 10 69q12 27 31 33h94q47 0 55.5 94.5t65.5 94.5h113v-547l-101 -4q-47 0 -63 86t-74 86h-90q-16 -2 -31 24q-10 21 -10 64zM2857 1417l4 160h656l-3 -631h-145q-82 0 -94 154 q-12 156 -76 207q-29 27 -59 30q-37 6 -86 6h-41q-8 0 -21.5 -1t-19.5 -1q-61 0 -82 13q-33 14 -33 63zM104 45q0 33 11 57l2 6q2 5 4 9q0 51 80 69q82 18 82 56l2 1093q0 37 -84 56q-82 18 -82 84l2 102h710v-1313q0 -55 134 -74q131 -18 131 -90v-102l-977 2 q-10 10 -13 20q-2 9 -2 25zM987 805q0 47 10 69q12 27 31 33h94q47 0 55.5 94.5t65.5 94.5h113v-547l-101 -4q-47 0 -63 86t-74 86h-90q-16 -2 -31 24q-10 21 -10 64zM1069 1417l4 160h656l-3 -631h-145q-82 0 -94 154q-12 156 -76 207q-29 27 -59 30q-37 6 -86 6h-41 q-8 0 -21.5 -1t-19.5 -1q-61 0 -82 13q-33 14 -33 63z" />
<glyph unicode="&#xfb04;" horiz-adv-x="5390" d="M3660 1575h909l-2 -131q0 -43 -96 -55.5t-96 -104.5v-1286h-707l4 108q0 57 92 82q90 25 91 68v1038q0 94 -96.5 100.5t-96.5 53.5zM4659 0v123q0 70 134 76q131 6 174 37q100 76 149 245q14 53 31 158q14 27 39 43q23 14 53 14q29 0 45 -10q18 -12 18 -33v-653h-643z M1892 45q0 33 11 57l2 6q2 5 4 9q0 51 80 69q82 18 82 56l2 1093q0 37 -84 56q-82 18 -82 84l2 102h710v-1313q0 -55 134 -74q131 -18 131 -90v-102l-977 2q-10 10 -13 20q-2 9 -2 25zM2775 805q0 47 10 69q12 27 31 33h94q47 0 55.5 94.5t65.5 94.5h113v-547l-101 -4 q-47 0 -63 86t-74 86h-90q-16 -2 -31 24q-10 21 -10 64zM2857 1417l4 160h656l-3 -631h-145q-82 0 -94 154q-12 156 -76 207q-29 27 -59 30q-37 6 -86 6h-41q-8 0 -21.5 -1t-19.5 -1q-61 0 -82 13q-33 14 -33 63zM104 45q0 33 11 57l2 6q2 5 4 9q0 51 80 69q82 18 82 56 l2 1093q0 37 -84 56q-82 18 -82 84l2 102h710v-1313q0 -55 134 -74q131 -18 131 -90v-102l-977 2q-10 10 -13 20q-2 9 -2 25zM987 805q0 47 10 69q12 27 31 33h94q47 0 55.5 94.5t65.5 94.5h113v-547l-101 -4q-47 0 -63 86t-74 86h-90q-16 -2 -31 24q-10 21 -10 64z M1069 1417l4 160h656l-3 -631h-145q-82 0 -94 154q-12 156 -76 207q-29 27 -59 30q-37 6 -86 6h-41q-8 0 -21.5 -1t-19.5 -1q-61 0 -82 13q-33 14 -33 63z" />
</font>
</defs>
</svg>
